<?xml version="1.0" standalone="no"?>
<!DOCTYPE svg PUBLIC "-//W3C//DTD SVG 1.1//EN" "http://www.w3.org/Graphics/SVG/1.1/DTD/svg11.dtd">
<svg xmlns="http://www.w3.org/2000/svg">
<defs >
<font id="Volkhov" horiz-adv-x="523" ><font-face
    font-family="Volkhov"
    units-per-em="1000"
    panose-1="2 0 5 3 0 0 0 2 0 4"
    ascent="971"
    descent="-319"
    alphabetic="0" />
<glyph unicode=" " glyph-name="space" horiz-adv-x="241" />
<glyph unicode="!" glyph-name="exclam" horiz-adv-x="279" d="M82 208L186 700H282L139 208H82ZM18 61Q18 88 38 107T86 127Q113 127 132 108T152 61Q152 32 133 13T86 -7Q58 -7 38 12T18 61Z" />
<glyph unicode="&quot;" glyph-name="quotedbl" horiz-adv-x="365" d="M116 473L142 708H246L167 473H116ZM288 473L314 708H418L339 473H288Z" />
<glyph unicode="#" glyph-name="numbersign" horiz-adv-x="550" d="M23 0L101 201H27L42 265H126L201 456H108L123 520H226L297 700H361L290 520H411L482 700H546L474 520H557L543 456H450L374 265H476L461 201H349L271 0H207L285 201H164L86 0H23ZM189 265H311L386
456H265L189 265Z" />
<glyph unicode="$" glyph-name="dollar" horiz-adv-x="563" d="M161 -83L180 -6Q82 0 5 40L61 224H100V63Q142 46 193 46L261 321L214 356Q177 384 152 424T126 514Q126 607 196 657Q260 704 357 707L374 777H432L414 707Q494 701 555 676L500 492H462V645Q438
651 401 653L336 394L352 382Q385 355 414 329T462 265T481 187Q481 90 409 41Q344 -2 236 -6L217 -83H161ZM322 75Q375 105 375 167Q375 207 349 241Q332 264 308 284L250 50Q290 57 322 75ZM269 626Q222 600 222 539Q222 510 241 482T288 432L342 650Q301 644
269 626Z" />
<glyph unicode="%" glyph-name="percent" horiz-adv-x="725" d="M94 0L599 701H664L161 0H94ZM97 472Q97 569 146 638T278 708Q323 708 349 682T376 605Q376 508 327 439T195 369Q150 369 124 395T97 472ZM170 471Q170 400 207 400Q246 400 275 469T304 606Q304
676 267 676Q227 676 199 611T170 471ZM377 95Q377 192 426 261T558 331Q603 331 630 305T657 229Q657 132 608 63T475 -7Q430 -7 404 19T377 95ZM450 95Q450 24 487 24Q526 24 555 93T584 229Q584 300 547 300Q507 300 479 235T450 95Z" />
<glyph unicode="&amp;" glyph-name="ampersand" horiz-adv-x="759" d="M46 173Q46 271 111 334T283 411L284 413Q235 423 206 457T177 536Q177 616 240 662T410 708Q485 708 527 683T570 615Q570 579 543 562T476 545Q467 545 463 546Q472 570 472 592Q472 624
454 645T401 667Q349 667 315 627T280 530Q280 482 311 455T401 428L395 377Q357 377 317 366T239 334T177 274T153 186Q153 125 192 91T306 56Q398 56 470 117T576 254H547Q454 254 413 243T333 186Q333 187 324 193T313 200Q331 237 358 262T421 298T489 314T562
319H596Q652 319 692 331T746 385Q769 368 769 330Q769 298 743 276T657 254H627Q578 134 489 64T266 -7Q162 -7 104 40T46 173Z" />
<glyph unicode="&apos;" glyph-name="quotesingle" horiz-adv-x="193" d="M116 473L142 708H246L167 473H116Z" />
<glyph unicode="(" glyph-name="parenleft" horiz-adv-x="319" d="M8 81Q8 289 113 481T399 799L421 770Q268 636 181 450T94 52Q94 -150 180 -270L152 -299Q8 -152 8 81Z" />
<glyph unicode=")" glyph-name="parenright" horiz-adv-x="317" d="M-124 -270Q28 -136 115 50T203 448Q203 651 116 770L144 799Q288 653 288 419Q288 211 183 19T-102 -299L-124 -270Z" />
<glyph unicode="*" glyph-name="asterisk" horiz-adv-x="480" d="M118 595L141 665L281 609L271 760H345L335 609L475 664L498 595L352 556L448 440L389 396L308 524L228 396L167 440L264 557L118 595Z" />
<glyph unicode="+" glyph-name="plus" horiz-adv-x="556" d="M64 323V390H259V585H326V390H523V323H326V127H259V323H64Z" />
<glyph unicode="," glyph-name="comma" horiz-adv-x="230" d="M-82 -142Q-4 -79 40 3L-8 53Q-8 81 12 100T60 120Q88 120 107 101T127 53Q127 24 109 -8T64 -72T3 -129T-59 -171L-82 -142Z" />
<glyph unicode="-" glyph-name="hyphen" horiz-adv-x="368" d="M70 235V312H289V235H70Z" />
<glyph unicode="." glyph-name="period" horiz-adv-x="231" d="M-5 61Q-5 88 15 107T63 127Q90 127 109 108T129 61Q129 32 110 13T63 -7Q35 -7 15 12T-5 61Z" />
<glyph unicode="/" glyph-name="slash" horiz-adv-x="433" d="M-35 0L431 700H497L31 0H-35Z" />
<glyph unicode="0" glyph-name="zero" horiz-adv-x="611" d="M55 209Q55 299 80 388T150 548T262 663T406 708Q495 708 539 652T584 493Q584 366 542 253T418 66T233 -7Q143 -7 99 52T55 209ZM156 202Q156 131 178 88T246 44Q310 44 366 120T453 301T483 499Q483
570 461 612T392 655Q328 655 272 584T186 409T156 202Z" />
<glyph unicode="1" glyph-name="one" horiz-adv-x="347" d="M68 0L224 611L99 560L93 596L319 707H344L167 0H68Z" />
<glyph unicode="2" glyph-name="two" horiz-adv-x="528" d="M-18 0L-5 60L297 379Q336 423 351 448T378 503T389 560Q389 606 366 636T297 666Q254 666 229 637T203 561Q203 535 210 510Q196 508 191 508Q156 508 134 527T111 581Q111 637 162 672T301 708Q386
708 437 670T488 562Q488 521 474 487T424 411T350 332L100 87H354L427 195H467L399 0H-18Z" />
<glyph unicode="3" glyph-name="three" horiz-adv-x="543" d="M-13 56L7 95Q86 46 171 46Q210 46 244 57T303 88T344 138T359 204Q359 273 320 308T193 345L205 395Q244 396 278 409T338 446T378 503T393 578Q393 617 370 642T307 667Q257 667 230 639T203 563Q203
538 210 514Q198 511 188 511Q159 511 138 530T116 582Q116 612 131 635T172 675T231 699T301 708Q340 708 374 699T435 673T476 628T491 565Q491 493 444 444T315 370V368Q385 357 423 318T461 219Q461 167 441 126T387 55T306 9T207 -7Q87 -7 -13 56Z" />
<glyph unicode="4" glyph-name="four" horiz-adv-x="550" d="M-19 177L-10 212L476 707H526L411 243H485L468 177H394L350 0H253L297 177H-19ZM96 243H314L386 534L96 243Z" />
<glyph unicode="5" glyph-name="five" horiz-adv-x="509" d="M-32 35L-5 76Q49 48 110 48Q203 48 272 107T341 265Q341 316 309 352T210 388Q162 388 120 379L102 393L204 700H407Q499 700 551 760L557 768L584 753L556 711Q547 698 527 677T487 645T435 627T364
619H234L175 437L184 440Q236 453 278 453Q364 453 406 404T448 286Q448 170 353 82T127 -7Q78 -7 38 3T-17 24L-32 35Z" />
<glyph unicode="6" glyph-name="six" horiz-adv-x="539" d="M43 197Q43 322 99 432T264 617T512 708L518 661Q392 637 299 558T162 365Q243 428 334 428Q410 428 449 382T489 264Q489 149 416 71T222 -7Q135 -7 89 49T43 197ZM130 199Q130 128 158 85T236 42Q296
42 340 104T385 246Q385 294 361 325T288 357Q219 357 144 309Q130 256 130 199Z" />
<glyph unicode="7" glyph-name="seven" horiz-adv-x="461" d="M71 0Q127 152 230 322T440 613H186L116 510H76L141 700H534L520 637Q274 315 175 0H71Z" />
<glyph unicode="8" glyph-name="eight" horiz-adv-x="578" d="M46 129Q46 203 100 266T233 373Q150 447 150 519Q150 603 216 655T375 708Q453 708 499 674T545 577Q545 509 501 461T384 373Q432 333 457 295T482 205Q482 106 408 50T221 -7Q149 -7 98 29T46 129ZM139
142Q139 94 169 68T244 41Q307 41 349 78T391 174Q391 196 384 217T367 252T338 285T308 313T271 342Q216 304 178 252T139 142ZM243 555Q243 525 259 496T294 450T347 403Q458 478 458 568Q458 612 428 635T357 659Q311 659 277 631T243 555Z" />
<glyph unicode="9" glyph-name="nine" horiz-adv-x="539" d="M50 39Q176 63 269 142T406 335Q325 272 234 272Q158 272 119 318T79 436Q79 551 152 629T346 707Q433 707 479 651T525 503Q525 378 469 268T304 83T56 -8L50 39ZM183 454Q183 406 207 375T280 343Q349
343 424 391Q438 444 438 501Q438 572 410 615T332 658Q272 658 228 596T183 454Z" />
<glyph unicode=":" glyph-name="colon" horiz-adv-x="231" d="M10 61Q10 88 30 107T78 127Q105 127 124 108T144 61Q144 32 125 13T78 -7Q50 -7 30 12T10 61ZM97 394Q97 421 117 440T165 460Q192 460 211 441T231 394Q231 365 212 346T165 326Q137 326 117 345T97 394Z" />
<glyph unicode=";" glyph-name="semicolon" horiz-adv-x="275" d="M98 394Q98 421 118 440T166 460Q193 460 212 441T232 394Q232 365 213 346T166 326Q138 326 118 345T98 394ZM-65 -133Q13 -70 57 12L9 62Q9 90 29 109T77 129Q105 129 124 110T144 62Q144 33
126 1T81 -63T20 -120T-42 -162L-65 -133Z" />
<glyph unicode="&lt;" glyph-name="less" horiz-adv-x="580" d="M60 330V385L489 616V539L153 357L489 177V100L60 330Z" />
<glyph unicode="=" glyph-name="equal" horiz-adv-x="597" d="M69 241V308H528V241H69ZM69 406V473H528V406H69Z" />
<glyph unicode="&gt;" glyph-name="greater" horiz-adv-x="578" d="M122 100V177L458 357L122 539V616L551 385V330L122 100Z" />
<glyph unicode="?" glyph-name="question" horiz-adv-x="467" d="M118 590Q118 641 170 674T314 708Q389 708 437 674T485 581Q485 528 455 489T383 428T297 386T224 341T194 280Q194 258 206 245T238 231Q262 231 287 250L311 219Q278 187 227 187Q190 187 161
212T131 279Q131 324 157 359T220 417L295 462Q332 484 358 515T384 588Q384 625 362 645T302 666Q262 666 239 638T215 565Q215 546 222 515Q175 515 147 534T118 590ZM113 61Q113 88 133 107T181 127Q208 127 227 108T247 61Q247 32 228 13T181 -7Q153 -7 133
12T113 61Z" />
<glyph unicode="@" glyph-name="at" horiz-adv-x="875" d="M56 232Q56 432 184 570T520 708Q664 708 758 627T852 416Q852 275 750 184T496 92Q469 92 469 115Q469 132 488 175Q412 92 329 92Q292 92 269 117T245 195Q245 331 335 429T540 528Q618 528 686 489L566
145Q660 159 731 234T802 416Q802 526 721 595T518 665Q407 665 320 604T188 447T143 241Q143 101 229 20T449 -62Q544 -62 638 -24L655 -58Q549 -117 419 -117Q264 -117 160 -26T56 232ZM341 218Q341 156 381 156Q411 156 449 187T519 263L595 481Q577 487 553
487Q470 487 406 406T341 218Z" />
<glyph unicode="A" glyph-name="A" horiz-adv-x="643" d="M-78 0L-68 41L24 63L404 700H459L506 62L585 41L575 0H325L335 41L411 59L399 201H170L85 62L164 41L154 0H-78ZM204 255H394L376 546L204 255Z" />
<glyph unicode="B" glyph-name="B" horiz-adv-x="631" d="M-20 0L-10 41L82 63L225 637L144 659L154 700H387Q475 700 527 664T580 553Q580 486 539 435T429 367L428 364Q482 349 513 310T545 216Q545 112 464 56T269 0H-20ZM176 56H263Q340 58 392 102T445 222Q445
272 413 303T323 334H246L176 56ZM260 392H315Q383 394 430 438T478 551Q478 644 372 644H323L260 392Z" />
<glyph unicode="C" glyph-name="C" horiz-adv-x="615" d="M55 239Q55 355 104 462T246 638T454 708Q510 708 558 698T628 678L648 668L602 483H563L557 640Q515 650 483 650Q390 650 314 594T197 445T155 245Q155 164 189 110T304 55Q348 55 392 64L506 226H545L474
42Q380 -7 289 -7Q225 -7 178 13T105 68T67 145T55 239Z" />
<glyph unicode="D" glyph-name="D" horiz-adv-x="697" d="M-20 0L-10 41L82 63L225 637L144 659L154 700H370Q517 700 592 638T668 453Q668 343 630 255T526 112T376 29T196 0H-20ZM178 62H211Q368 62 468 177T569 457Q569 638 355 638H322L178 62Z" />
<glyph unicode="E" glyph-name="E" horiz-adv-x="593" d="M-20 0L-10 41L82 63L225 637L144 659L154 700H619L568 495H530L524 638H322L257 381L460 401L440 317L246 335L178 62H379L488 216H526L445 0H-20Z" />
<glyph unicode="F" glyph-name="F" horiz-adv-x="551" d="M-20 0L-10 41L82 63L225 637L144 659L154 700H619L568 495H530L524 638H322L257 381L460 401L440 317L246 335L178 63L279 41L269 0H-20Z" />
<glyph unicode="G" glyph-name="G" horiz-adv-x="668" d="M54 236Q54 364 108 471T262 643T485 708Q572 708 666 669L620 484H582L575 644Q532 653 493 653Q344 653 250 533T155 242Q155 145 207 98T344 51Q370 51 415 60L465 261L366 296L374 327H648L640 296L561
261L506 42Q403 -7 307 -7Q198 -7 126 53T54 236Z" />
<glyph unicode="H" glyph-name="H" horiz-adv-x="770" d="M-20 0L-10 41L82 63L225 637L144 659L154 700H424L414 659L321 637L258 385H557L620 637L540 659L550 700H819L809 659L717 637L574 63L655 41L645 0H376L386 41L477 63L542 323H243L178 63L260 41L250 0H-20Z" />
<glyph unicode="I" glyph-name="I" horiz-adv-x="375" d="M-20 0L-10 41L82 63L225 637L144 659L154 700H424L414 659L321 637L178 63L260 41L250 0H-20Z" />
<glyph unicode="J" glyph-name="J" horiz-adv-x="355" d="M-83 -116Q52 -28 97 150L218 637L138 659L148 700H418L408 659L315 637L194 150Q168 45 89 -35T-71 -149L-83 -116Z" />
<glyph unicode="K" glyph-name="K" horiz-adv-x="665" d="M-20 0L-10 41L82 63L225 637L144 659L154 700H424L414 659L321 637L178 63L260 41L250 0H-20ZM274 364L555 637L494 659L504 700H742L732 659L651 639L371 373L422 256Q476 132 506 94T604 34L593 -7Q524
-4 480 20T405 88T336 221L274 364Z" />
<glyph unicode="L" glyph-name="L" horiz-adv-x="563" d="M-20 0L-10 41L82 63L225 637L144 659L154 700H424L414 659L321 637L178 62H379L488 216H526L445 0H-20Z" />
<glyph unicode="M" glyph-name="M" horiz-adv-x="938" d="M-39 0L-29 41L66 64L241 638L163 659L173 700H353L433 168L771 700H967L957 659L868 638L755 63L841 41L831 0H560L570 41L658 62L757 561L396 -5H365L280 562L131 62L210 41L200 0H-39Z" />
<glyph unicode="N" glyph-name="N" horiz-adv-x="741" d="M-20 0L-10 41L82 63L225 637L144 659L154 700H290L525 200L634 637L554 659L564 700H801L791 659L698 637L540 0H514L263 532L146 63L227 41L217 0H-20Z" />
<glyph unicode="O" glyph-name="O" horiz-adv-x="719" d="M54 233Q54 354 103 462T245 639T455 708Q572 708 632 641T693 467Q693 378 664 293T585 141T458 34T293 -7Q176 -7 115 60T54 233ZM156 224Q156 142 192 94T301 46Q369 46 425 88T517 195T571 335T591
478Q591 559 554 606T445 653Q379 653 322 611T230 504T176 366T156 224Z" />
<glyph unicode="P" glyph-name="P" horiz-adv-x="584" d="M-20 0L-10 41L82 63L225 637L144 659L154 700H387Q484 700 542 656T601 526Q601 402 517 333T301 264Q266 264 230 270L178 63L288 41L278 0H-20ZM244 328Q272 324 307 324Q395 324 448 377T501 522Q501
579 469 610T373 642H323L244 328Z" />
<glyph unicode="Q" glyph-name="Q" horiz-adv-x="718" d="M54 233Q54 354 103 462T245 639T455 708Q572 708 632 641T693 467Q693 378 665 293T585 143T478 45T372 1Q423 -10 470 -38L560 -94Q601 -118 644 -118Q709 -118 755 -53L781 -68Q744 -143 706 -176T620
-210Q586 -210 556 -195T498 -156L442 -104Q413 -77 372 -50T283 -7Q173 -4 114 62T54 233ZM156 224Q156 142 192 94T301 46Q369 46 425 88T517 195T571 335T591 478Q591 559 554 606T445 653Q379 653 322 611T230 504T176 366T156 224Z" />
<glyph unicode="R" glyph-name="R" horiz-adv-x="643" d="M-20 0L-10 41L82 63L225 637L144 659L154 700H396Q492 700 549 660T606 543Q606 450 550 394T408 327L436 233Q460 148 491 101T587 34L576 -7Q480 -3 431 48T351 198L315 312L240 311L178 63L260 41L250
0H-20ZM254 366H313Q395 367 450 413T506 541Q506 589 474 615T382 642H323L254 366Z" />
<glyph unicode="S" glyph-name="S" horiz-adv-x="551" d="M-1 40L55 224H94V63Q138 46 191 46Q264 46 316 75T369 167Q369 207 344 241T281 302L208 356Q172 384 146 424T120 514Q120 607 190 657T369 708Q473 708 549 676L494 492H456V645Q427 653 379 653Q310
653 263 627T216 539Q216 510 235 482T283 432L346 382Q380 355 408 329T456 265T475 187Q475 90 404 42T208 -7Q90 -7 -1 40Z" />
<glyph unicode="T" glyph-name="T" horiz-adv-x="593" d="M80 488L133 700H663L610 488H572L567 638H432L288 63L369 41L359 0H89L99 41L191 63L335 638H199L119 488H80Z" />
<glyph unicode="U" glyph-name="U" horiz-adv-x="737" d="M97 169Q97 214 111 269L203 637L122 659L132 700H402L392 659L299 637L207 269Q193 211 193 184Q193 123 232 94T338 64Q414 64 469 118T548 269L640 637L560 659L570 700H807L797 659L704 637L612 269Q578
131 499 62T301 -7Q210 -7 154 37T97 169Z" />
<glyph unicode="V" glyph-name="V" horiz-adv-x="640" d="M85 659L95 700H347L337 659L260 642L298 146L571 637L501 659L511 700H743L733 659L641 637L283 -7H213L163 637L85 659Z" />
<glyph unicode="W" glyph-name="W" horiz-adv-x="942" d="M84 659L94 700H344L334 659L257 641L279 166L550 700H611L639 167L869 637L790 659L800 700H1039L1029 659L937 637L622 -7H553L524 516L260 -7H191L161 638L84 659Z" />
<glyph unicode="X" glyph-name="X" horiz-adv-x="655" d="M-74 0L-64 41L28 63L296 362L200 636L120 659L130 700H371L361 659L298 643L375 424L561 639L488 659L498 700H747L737 659L644 637L398 359L502 62L582 41L572 0H330L340 41L403 56L319 296L112 61L185
41L175 0H-74Z" />
<glyph unicode="Y" glyph-name="Y" horiz-adv-x="615" d="M77 659L87 700H324L314 659L250 646L343 385L547 639L473 659L483 700H714L704 659L628 637L369 318L306 63L394 41L384 0H115L125 41L209 63L271 313L151 639L77 659Z" />
<glyph unicode="Z" glyph-name="Z" horiz-adv-x="608" d="M-20 0L-5 62L493 638H226L149 495H111L162 700H632L617 638L120 62H404L512 216H551L470 0H-20Z" />
<glyph unicode="[" glyph-name="bracketleft" horiz-adv-x="319" d="M-15 -128L206 760H416L404 710H287L90 -78H207L195 -128H-15Z" />
<glyph unicode="\" glyph-name="backslash" horiz-adv-x="363" d="M159 -121L164 760H214V-121H159Z" />
<glyph unicode="]" glyph-name="bracketright" horiz-adv-x="318" d="M-85 -128L-73 -78H43L240 710H124L136 760H345L124 -128H-85Z" />
<glyph unicode="^" glyph-name="asciicircum" horiz-adv-x="559" d="M107 267L415 715H456L543 267H480L416 623L177 267H107Z" />
<glyph unicode="_" glyph-name="underscore" horiz-adv-x="774" d="M56 -78H515V-142H56V-78Z" />
<glyph unicode="`" glyph-name="grave" horiz-adv-x="175" d="M-39 715Q-4 757 55 767L156 591L121 564L-39 715Z" />
<glyph unicode="a" glyph-name="a" horiz-adv-x="567" d="M24 137Q24 291 116 399T340 507Q433 507 503 461L402 69H502V37Q428 14 390 4T338 -7Q303 -7 303 23Q303 38 310 64L319 100Q235 -7 135 -7Q87 -7 56 28T24 137ZM122 159Q122 62 184 62Q218 62 263 100T343
191L412 456Q391 463 362 463Q292 463 236 416T151 300T122 159Z" />
<glyph unicode="b" glyph-name="b" horiz-adv-x="540" d="M16 39L199 731H99V763Q173 786 211 796T263 807Q298 807 298 777Q298 762 291 736L203 403Q286 507 384 507Q432 507 463 472T495 363Q495 209 403 101T179 -7Q86 -7 16 39ZM107 44Q128 37 157 37Q227
37 283 84T368 200T397 341Q397 438 335 438Q301 438 257 401T178 312L107 44Z" />
<glyph unicode="c" glyph-name="c" horiz-adv-x="462" d="M27 170Q27 230 46 289T101 397T193 476T316 507Q378 507 416 484T455 426Q455 396 431 376T366 354Q362 369 357 393T349 426T341 447T329 463T311 467Q241 467 186 384T130 178Q130 116 158 79T248 42Q297
42 365 68L375 37Q287 -7 193 -7Q115 -7 71 39T27 170Z" />
<glyph unicode="d" glyph-name="d" horiz-adv-x="572" d="M24 137Q24 291 116 399T340 507Q382 507 419 497L476 730H376V762Q450 786 490 796T541 807Q576 807 576 776Q576 766 569 735L406 69H506V37Q432 14 394 4T341 -7Q306 -7 306 23Q306 38 313 64L323 105Q236
-7 135 -7Q87 -7 56 28T24 137ZM122 159Q122 62 184 62Q219 62 265 101T344 194L409 457Q386 463 362 463Q292 463 236 416T151 300T122 159Z" />
<glyph unicode="e" glyph-name="e" horiz-adv-x="473" d="M24 162Q24 210 37 258T76 351T139 430T225 486T332 507Q388 507 422 482T457 407Q457 370 436 340T383 288T304 249T217 221T125 199Q124 190 124 172Q124 42 237 42Q289 42 360 69L370 38Q280 -7 186
-7Q24 -7 24 162ZM130 238Q359 321 359 417Q359 470 312 470Q252 470 200 401T130 238Z" />
<glyph unicode="f" glyph-name="f" horiz-adv-x="348" d="M-307 -221Q-307 -173 -231 -132Q-209 -193 -206 -201T-194 -226T-178 -247T-159 -258T-132 -264Q-85 -264 -45 -213T19 -66L144 449H70L78 482L153 488L174 573Q205 697 280 752T450 807Q612 807 612
724Q612 674 540 641L509 706Q494 738 474 752Q464 759 454 761T436 763Q312 763 259 548L246 495L392 507L377 449H235L109 -68Q51 -308 -154 -308Q-223 -308 -265 -284T-307 -221Z" />
<glyph unicode="g" glyph-name="g" horiz-adv-x="543" d="M-53 -221Q-53 -173 23 -132Q27 -142 36 -167T48 -201T60 -226T76 -247T96 -258T124 -264Q230 -264 286 -43L323 106Q237 -7 135 -7Q87 -7 56 28T24 137Q24 291 116 399T340 507Q433 507 503 461L371 -68Q337
-204 269 -256T103 -308Q34 -308 -9 -284T-53 -221ZM122 159Q122 62 184 62Q220 62 266 102T346 196L412 456Q391 463 362 463Q292 463 236 416T151 300T122 159Z" />
<glyph unicode="h" glyph-name="h" horiz-adv-x="573" d="M12 -7L196 731H96V763Q170 786 208 796T261 807Q296 807 296 777Q296 762 289 736L197 373Q296 507 399 507Q492 507 492 409Q492 362 467 276L407 69H507V37Q433 14 395 4T342 -7Q307 -7 307 23Q307
38 314 64L385 310Q398 360 398 369T399 386Q399 434 362 434Q324 434 268 389T175 284L104 0L12 -7Z" />
<glyph unicode="i" glyph-name="i" horiz-adv-x="313" d="M45 22Q44 30 46 40T52 63L146 432H45V463Q183 507 210 507Q246 507 246 478Q246 467 238 437L146 68H246V37Q114 -7 81 -7Q45 -7 45 22ZM166 644Q166 671 185 689T231 708Q258 708 276 690T295 644Q295
616 277 598T231 579Q204 579 185 597T166 644Z" />
<glyph unicode="j" glyph-name="j" horiz-adv-x="296" d="M-302 -221Q-302 -173 -226 -132Q-222 -142 -213 -167T-201 -201T-189 -226T-173 -247T-153 -258T-126 -264Q-82 -264 -37 -216T38 -43L153 431H53V463Q127 486 165 496T218 507Q253 507 253 477Q253 463
246 436L121 -68Q62 -308 -145 -308Q-215 -308 -258 -284T-302 -221ZM181 644Q181 671 200 689T246 708Q273 708 291 690T310 644Q310 616 292 598T246 579Q219 579 200 597T181 644Z" />
<glyph unicode="k" glyph-name="k" horiz-adv-x="535" d="M12 -7L195 731H95V763Q169 786 207 796T260 807Q295 807 295 777Q295 767 288 736L104 0L12 -7ZM187 260Q382 349 382 406Q382 433 345 481Q377 507 418 507Q483 507 483 447Q483 356 290 259L342 163Q380
94 404 68T476 27L468 -7Q391 -7 351 14T273 104L187 260Z" />
<glyph unicode="l" glyph-name="l" horiz-adv-x="296" d="M29 22Q29 35 37 63L203 731H103V763Q176 786 214 796T268 807Q303 807 303 777Q303 765 295 736L129 68H229V37Q97 -7 64 -7Q29 -7 29 22Z" />
<glyph unicode="m" glyph-name="m" horiz-adv-x="869" d="M36 -7L146 431H46V463Q121 486 159 496T211 507Q246 507 246 477Q246 469 244 459T239 436L226 386Q314 507 413 507Q507 507 507 407Q507 404 507 398T505 383Q595 507 694 507Q788 507 788 407Q788
344 702 69H802V37Q728 14 691 4T637 -7Q602 -7 602 23Q602 40 609 64Q693 350 693 387Q693 433 657 433Q639 433 617 422T571 391T526 347T486 294L407 0L312 -7L388 273Q412 361 412 387Q412 433 376 433Q358 433 336 421T289 390T242 344T201 289L128 0L36 -7Z"
/>
<glyph unicode="n" glyph-name="n" horiz-adv-x="598" d="M37 -7L146 431H46V463Q121 486 159 496T211 507Q246 507 246 477Q246 469 244 459T239 436L223 374Q323 507 424 507Q517 507 517 409Q517 359 492 276L432 69H532V37Q457 14 419 4T367 -7Q332 -7 332
23Q332 40 339 64Q415 327 419 348T424 386Q424 433 387 433Q369 433 345 421T294 388T244 340T201 285L129 0L37 -7Z" />
<glyph unicode="o" glyph-name="o" horiz-adv-x="538" d="M26 176Q26 258 61 332T166 457T324 507Q406 507 448 458T490 323Q490 242 455 167T349 43T191 -7Q109 -7 68 41T26 176ZM127 158Q127 33 203 33Q249 33 286 65T344 147T377 246T388 341Q388 467 312 467Q267
467 230 435T171 353T139 253T127 158Z" />
<glyph unicode="p" glyph-name="p" horiz-adv-x="571" d="M-39 -300L147 431H47V463Q121 486 158 496T212 507Q247 507 247 477Q247 467 240 436L231 400Q315 507 415 507Q463 507 494 472T526 363Q526 209 434 101T210 -7Q170 -7 129 2L56 -285L-39 -300ZM140
43Q157 37 188 37Q258 37 314 84T399 200T428 341Q428 438 366 438Q331 438 287 400T208 310L140 43Z" />
<glyph unicode="q" glyph-name="q" horiz-adv-x="541" d="M24 137Q24 291 116 399T340 507Q433 507 503 461L308 -294L214 -307L320 101Q233 -7 135 -7Q87 -7 56 28T24 137ZM122 159Q122 62 184 62Q219 62 264 100T343 192L412 456Q391 463 362 463Q292 463 236
416T151 300T122 159Z" />
<glyph unicode="r" glyph-name="r" horiz-adv-x="445" d="M36 -7L146 432H46V463Q180 507 211 507Q246 507 246 478Q246 462 239 437L223 376Q321 507 402 507Q432 507 449 489T467 444Q467 415 447 384Q379 415 354 415Q333 415 313 405T270 370T236 330T199
280L129 0L36 -7Z" />
<glyph unicode="s" glyph-name="s" horiz-adv-x="444" d="M-11 79Q-11 94 -6 105T13 128T36 144T65 161Q86 102 113 69T192 35Q225 35 247 54T269 106Q269 136 250 161Q232 186 149 246Q122 266 103 299T84 373Q84 437 132 472T264 507Q335 507 378 486T422 429Q422
386 342 361Q310 463 239 463Q208 463 188 447T168 401Q168 379 182 358T211 325T257 289Q355 218 355 136Q355 70 305 32T163 -7Q80 -7 35 17T-11 79Z" />
<glyph unicode="t" glyph-name="t" horiz-adv-x="373" d="M54 53Q54 68 59 90L150 452H67L75 482L160 489L182 576L275 591L251 496L382 507L368 452H240L156 109Q154 99 154 97Q154 75 177 75Q203 75 243 88T311 110L321 78Q302 67 225 30T107 -7Q54 -7 54 53Z" />
<glyph unicode="u" glyph-name="u" horiz-adv-x="597" d="M44 431V463Q119 486 157 496T209 507Q244 507 244 477Q244 469 237 443T220 380T198 301T176 222T159 155T152 114Q152 67 189 67Q208 67 232 79T282 113T332 160T375 215L447 500L539 507L430 69H530V37Q455
14 417 4T365 -7Q330 -7 330 23Q329 36 337 64L353 126Q253 -7 152 -7Q59 -7 59 91Q59 140 84 224L144 431H44Z" />
<glyph unicode="v" glyph-name="v" horiz-adv-x="541" d="M19 431V463Q131 507 161 507Q193 507 199 477L274 74Q324 138 350 175T405 271T433 374Q433 401 417 419T361 464Q398 507 450 507Q479 507 499 490T520 437Q520 374 468 279T271 0L196 -7L119 431H19Z" />
<glyph unicode="w" glyph-name="w" horiz-adv-x="814" d="M19 431V463Q137 507 165 507Q198 507 203 477L273 73Q400 234 412 357L387 500L476 507L556 76Q694 252 694 374Q694 401 678 419T622 464Q659 507 711 507Q739 507 760 490T781 437Q781 367 737 272T552
0L475 -7L431 248Q423 236 395 186T339 92T272 0L196 -7L119 431H19Z" />
<glyph unicode="x" glyph-name="x" horiz-adv-x="553" d="M-30 54Q-30 78 -17 112Q36 95 67 95Q100 95 122 113T168 166L224 244L168 431H67V463Q175 507 202 507Q236 507 245 477L292 318Q373 426 414 466T494 507Q522 507 539 490T556 445Q556 424 542 387Q488
404 458 404Q430 404 409 389T356 331L309 265L369 69H470V37Q367 -7 335 -7Q301 -7 292 23L241 192Q158 80 115 37T32 -7Q4 -7 -13 10T-30 54Z" />
<glyph unicode="y" glyph-name="y" horiz-adv-x="543" d="M0 -245Q0 -222 15 -197T52 -152L118 -88Q163 -44 198 -7L120 431H20V463Q134 507 162 507Q195 507 200 477L273 77L281 86Q368 191 401 257T434 374Q434 391 425 406T403 431T362 464Q399 507 451 507Q479
507 500 490T521 437Q521 304 314 54L174 -108Q154 -129 138 -149T116 -182T111 -207Q111 -234 136 -261Q101 -300 58 -300Q35 -300 18 -287T0 -245Z" />
<glyph unicode="z" glyph-name="z" horiz-adv-x="510" d="M6 26L377 432Q350 416 263 416H207Q156 416 126 402T81 347L48 355Q71 450 88 478T131 507Q153 507 227 504T335 500Q410 500 465 507L482 478L98 55Q188 70 279 70Q453 70 453 -12Q453 -72 371 -72L353
-71V-65Q353 -29 311 -8T198 13Q140 13 27 0L6 26Z" />
<glyph unicode="{" glyph-name="braceleft" horiz-adv-x="351" d="M22 296L33 338Q87 341 121 363T170 443L213 617Q249 760 384 760H446L435 717H407Q330 717 304 612L261 441Q235 336 127 318V317Q206 302 206 231Q206 214 200 193L156 20Q148 -9 148 -28Q148
-85 207 -85H235L225 -128H163Q111 -128 84 -103T57 -31Q57 -10 63 16L107 190Q112 209 112 228Q112 264 89 278T22 296Z" />
<glyph unicode="|" glyph-name="bar" horiz-adv-x="317" d="M118 -240V760H183V-240H118Z" />
<glyph unicode="}" glyph-name="braceright" horiz-adv-x="351" d="M-83 -128L-73 -85H-45Q-4 -85 20 -59T58 20L102 193Q129 299 238 317V318Q158 333 158 404Q158 419 163 441L206 612Q214 642 214 662Q214 717 155 717H127L138 760H200Q306 760 306 668Q306
644 299 617L256 443Q251 420 251 407Q251 341 341 338L330 296Q277 293 243 271T193 190L149 16Q132 -50 88 -89T-21 -128H-83Z" />
<glyph unicode="~" glyph-name="asciitilde" horiz-adv-x="449" d="M115 643Q125 653 142 668T200 708T270 734Q298 734 320 718T362 687T401 671Q448 671 513 720L529 697Q519 687 503 672T445 632T375 606Q347 606 324 622T282 653T243 669Q199 669 131 620L115 643Z" />
<glyph unicode="&#xa1;" glyph-name="exclamdown" horiz-adv-x="260" d="M167 292L63 -200H-33L110 292H167ZM231 439Q231 412 211 393T163 373Q136 373 117 392T97 439Q97 468 116 487T163 507Q191 507 211 488T231 439Z" />
<glyph unicode="&#xa2;" glyph-name="cent" horiz-adv-x="486" d="M130 -140L164 -4Q110 4 77 39Q33 85 33 170Q33 230 52 289T107 397T199 476Q242 500 290 505L326 648H382L346 506Q393 502 423 484Q461 461 461 423Q461 396 443 382T399 367Q380 367 363 374Q367
396 367 407Q367 454 336 464L231 44Q242 43 274 44T371 68L381 37Q302 -4 219 -6L186 -140H130ZM191 384Q136 301 136 178Q136 95 180 63L279 460Q231 444 191 384Z" />
<glyph unicode="&#xa3;" glyph-name="sterling" horiz-adv-x="586" d="M-12 36Q188 172 188 312Q188 326 187 333H64L74 375L179 382Q160 459 158 481T155 519Q155 604 218 656T376 708Q465 708 518 675T571 585Q571 550 545 532T481 514H467Q473 538 473 560Q473
607 447 636T379 665Q319 665 285 622T251 509Q252 467 268 389L415 400L389 333H273Q273 210 139 97H404L478 205H517L446 0H-5L-12 36Z" />
<glyph unicode="&#xa4;" glyph-name="currency" horiz-adv-x="580" d="M39 172L116 237Q102 269 102 309Q102 407 181 489L136 553L182 588L226 526Q288 570 361 570Q424 570 466 532L543 595L577 552L500 488Q512 455 512 420Q512 368 489 317T429 230L474 165L429
130L384 191Q324 149 258 149Q194 149 149 191L74 128L39 172ZM181 331Q181 276 208 243T283 209Q343 209 385 264T428 384Q428 437 402 472T326 508Q266 508 224 453T181 331Z" />
<glyph unicode="&#xa5;" glyph-name="yen" horiz-adv-x="701" d="M126 196L137 238L299 247L315 312H155L166 354L298 361L196 639L122 659L132 700H369L359 659L295 646L388 385L592 639L518 659L528 700H759L749 659L673 637L457 370L601 379L575 312H412L398
253L572 263L546 196H384L351 63L439 41L429 0H160L170 41L254 63L287 196H126Z" />
<glyph unicode="&#xa6;" glyph-name="brokenbar" horiz-adv-x="311" d="M115 160H180V-240H115V160ZM115 360V760H180V360H115Z" />
<glyph unicode="&#xa7;" glyph-name="section" horiz-adv-x="518" d="M0 -43L39 113H72L80 -19Q111 -31 157 -31Q225 -31 266 -4T308 75Q308 92 303 104T291 124Q275 144 211 182T124 243T91 289T80 339Q80 426 190 478Q148 520 148 578Q148 662 213 710T372 759Q454
759 518 733L479 576H446L439 703Q406 710 376 710Q319 710 274 685T229 608Q229 590 235 576T257 548T286 526Q357 485 373 474T415 442T452 397T464 343Q464 247 361 190Q398 150 398 94Q398 8 332 -37T168 -83Q67 -83 0 -43ZM161 364Q161 356 162 350T167 337T174
325T185 314T196 304T257 264Q305 236 326 220Q374 256 374 312Q374 371 274 422Q244 436 225 450Q161 417 161 364Z" />
<glyph unicode="&#xa8;" glyph-name="dieresis" horiz-adv-x="396" d="M30 693Q30 720 49 739T96 758Q123 758 142 739T161 693Q161 665 142 646T96 627Q69 627 50 646T30 693ZM230 693Q230 720 249 739T296 758Q323 758 342 739T361 693Q361 665 342 646T296
627Q269 627 250 646T230 693Z" />
<glyph unicode="&#xa9;" glyph-name="copyright" horiz-adv-x="858" d="M185 100Q78 207 78 359Q78 435 107 502T186 619T303 698T445 728Q520 728 587 699T704 619T783 502T813 359Q813 284 784 217T705 101T587 22T445 -7Q294 -7 185 100ZM445 51Q509 51 565
75T663 142T729 240T753 359Q753 423 729 479T663 577T565 643T445 668Q382 668 326 644T229 578T163 480T138 359Q138 295 162 239T228 141T326 75T445 51ZM248 359Q248 465 302 522T465 579Q524 579 579 556V444H544L518 528Q490 533 473 533Q330 533 330 359Q330
187 470 187Q483 187 492 187T507 189L552 280H586L571 169Q518 141 455 141Q353 141 301 197T248 359Z" />
<glyph unicode="&#xaa;" glyph-name="ordfeminine" horiz-adv-x="405" d="M97 477Q97 573 157 640T300 708Q364 708 406 679L344 438H406V415Q358 400 331 393Q313 387 292 387Q272 387 272 405Q272 412 276 431L282 454Q230 387 167 387Q135 387 116 411T97 477ZM173
491Q173 438 207 438Q229 438 254 460T298 518L339 671Q327 675 313 675Q248 675 211 619T173 491Z" />
<glyph unicode="&#xab;" glyph-name="guillemotleft" horiz-adv-x="458" d="M40 254L48 286L236 460H283L140 270L188 80H141L40 254ZM222 256L229 284L379 431H421L317 270L335 99H293L222 256Z" />
<glyph unicode="&#xac;" glyph-name="logicalnot" horiz-adv-x="593" d="M70 326V390H498V123H434V326H70Z" />
<glyph unicode="&#xad;" glyph-name="uni00AD" horiz-adv-x="404" d="M84 317V397H344V317H84Z" />
<glyph unicode="&#xae;" glyph-name="registered" horiz-adv-x="858" d="M185 100Q78 207 78 359Q78 435 107 502T186 619T303 698T445 728Q520 728 587 699T704 619T783 502T813 359Q813 284 784 217T705 101T587 22T445 -7Q294 -7 185 100ZM227 577Q137 487
137 359Q137 296 161 240T228 142T326 76T445 51Q508 51 564 75T662 142T728 240T753 359Q753 422 729 478T662 577T564 643T445 668Q317 668 227 577ZM257 152V180L313 193V531L257 544V572H427Q594 572 594 457Q594 412 569 383T497 344L590 192L643 179V152H530L425
338H386V193L442 180V152H257ZM386 374H421Q466 374 492 395T518 457Q518 494 492 514T421 534H386V374Z" />
<glyph unicode="&#xaf;" glyph-name="overscore" horiz-adv-x="0" />
<glyph unicode="&#xb0;" glyph-name="degree" horiz-adv-x="258" d="M258 461Q199 461 156 503T113 608Q113 671 156 713T258 755Q316 755 360 713T405 608Q405 546 362 504T258 461ZM257 525Q292 525 317 550T343 608Q343 641 317 666T257 691Q226 691 201 666T175
608Q175 575 200 550T257 525Z" />
<glyph unicode="&#xb1;" glyph-name="plusminus" horiz-adv-x="628" d="M72 0V67H521V0H72ZM72 323V390H257V585H324V390H521V323H324V127H257V323H72Z" />
<glyph unicode="&#xb2;" glyph-name="twosuperior" horiz-adv-x="378" d="M63 285L70 321L227 490Q250 517 259 529T278 560T291 592T294 623Q294 649 282 664T247 680Q223 680 210 663T196 616Q196 604 198 578Q169 578 148 592T127 632Q127 667 161 688T253
710Q308 710 340 687T373 618Q373 595 366 575T337 531T296 488L157 357H296L336 418H364L316 285H63Z" />
<glyph unicode="&#xb3;" glyph-name="threesuperior" horiz-adv-x="367" d="M59 311L72 342Q118 313 167 313Q214 313 242 337T270 403Q270 440 250 461T179 487L186 522Q230 523 260 556T290 633Q290 656 278 668T249 681Q194 681 194 612Q194 595 197 580Q168
580 149 593T129 632Q129 665 163 686T255 708Q306 708 337 686T368 619Q368 576 335 545T254 505V504Q299 500 325 473T351 407Q351 344 305 310T193 276Q122 276 59 311Z" />
<glyph unicode="&#xb4;" glyph-name="acute" horiz-adv-x="201" d="M10 591L111 767Q172 756 205 715L46 564L10 591Z" />
<glyph unicode="&#xb5;" glyph-name="mu" horiz-adv-x="622" d="M-22 -211Q-22 -204 -18 -186L153 500H248L162 155Q157 133 157 119Q157 86 175 68T228 50Q289 50 369 101L468 500H563L473 138Q469 122 469 106Q469 59 515 59H527L520 32Q465 -15 413 -15Q390
-15 376 -3T359 21T356 45V50Q272 -15 192 -15Q126 -15 102 32Q78 -49 78 -116Q78 -172 99 -187Q98 -189 97 -193T88 -208T73 -227T50 -241T19 -248Q-22 -248 -22 -211Z" />
<glyph unicode="&#xb6;" glyph-name="paragraph" horiz-adv-x="599" d="M101 517Q101 616 171 688T366 760H658L649 722L564 702L361 -112H303L504 697H415L214 -112H156L280 386H271Q101 386 101 517Z" />
<glyph unicode="&#xb7;" glyph-name="middot" horiz-adv-x="262" d="M54 300Q54 331 77 353T132 376Q163 376 185 354T208 300Q208 267 186 245T132 222Q100 222 77 244T54 300Z" />
<glyph unicode="&#xb8;" glyph-name="cedilla" horiz-adv-x="333" d="M-1 -229L11 -190Q24 -194 48 -194Q85 -194 114 -178T144 -125Q144 -76 85 -76L129 9H173L149 -41Q223 -45 223 -110Q223 -166 176 -202T68 -239Q32 -239 -1 -229Z" />
<glyph unicode="&#xb9;" glyph-name="onesuperior" horiz-adv-x="238" d="M92 285L182 640L115 612L107 644L241 709H271L166 285H92Z" />
<glyph unicode="&#xba;" glyph-name="ordmasculine" horiz-adv-x="392" d="M97 500Q97 585 156 646T297 708Q356 708 387 677T419 595Q419 511 361 449T218 387Q158 387 128 417T97 500ZM180 486Q180 421 226 421Q270 421 303 483T336 609Q336 674 289 674Q245
674 213 612T180 486Z" />
<glyph unicode="&#xbb;" glyph-name="guillemotright" horiz-adv-x="459" d="M26 109L130 270L112 441H154L225 284L218 256L68 109H26ZM164 80L307 270L259 460H306L407 286L399 254L211 80H164Z" />
<glyph unicode="&#xbc;" glyph-name="onequarter" horiz-adv-x="729" d="M79 0L545 700H611L145 0H79ZM113 285L203 640L136 612L128 644L262 709H292L187 285H113ZM349 113L356 145L632 425H671L605 158H648L637 113H593L565 1H498L527 113H349ZM427 158H538L575
306L427 158Z" />
<glyph unicode="&#xbd;" glyph-name="onehalf" horiz-adv-x="791" d="M80 0L546 700H612L146 0H80ZM114 285L204 640L137 612L129 644L263 709H293L188 285H114ZM410 2L417 38L574 207Q597 234 606 246T625 277T638 309T641 340Q641 366 629 381T594 397Q570 397
557 380T543 333Q543 321 545 295Q516 295 495 309T474 349Q474 384 508 405T600 427Q655 427 687 404T720 335Q720 312 713 292T684 248T643 205L504 74H643L683 135H711L663 2H410Z" />
<glyph unicode="&#xbe;" glyph-name="threequarters" horiz-adv-x="781" d="M178 0L644 700H710L244 0H178ZM398 113L405 145L681 425H720L654 158H697L686 113H642L614 1H547L576 113H398ZM476 158H587L624 306L476 158ZM59 311L72 342Q118 313 167 313Q214 313
242 337T270 403Q270 440 250 461T179 487L186 522Q230 523 260 556T290 633Q290 656 278 668T249 681Q194 681 194 612Q194 595 197 580Q168 580 149 593T129 632Q129 665 163 686T255 708Q306 708 337 686T368 619Q368 576 335 545T254 505V504Q299 500 325 473T351
407Q351 344 305 310T193 276Q122 276 59 311Z" />
<glyph unicode="&#xbf;" glyph-name="questiondown" horiz-adv-x="455" d="M321 -90Q321 -141 269 -174T125 -208Q50 -208 2 -174T-46 -81Q-46 -28 -16 11T56 72T142 114T215 159T245 220Q245 242 233 255T201 269Q177 269 152 250L128 281Q161 313 212 313Q249
313 278 288T308 221Q308 176 282 141T219 83L144 38Q107 16 81 -15T55 -88Q55 -125 77 -145T137 -166Q177 -166 200 -138T224 -65Q224 -46 217 -15Q264 -15 292 -34T321 -90ZM326 439Q326 412 306 393T258 373Q231 373 212 392T192 439Q192 468 211 487T258 507Q286
507 306 488T326 439Z" />
<glyph unicode="&#xc0;" glyph-name="Agrave" horiz-adv-x="643" d="M-78 0L-68 41L24 63L404 700H459L506 62L585 41L575 0H325L335 41L411 59L399 201H170L85 62L164 41L154 0H-78ZM204 255H394L376 546L204 255ZM269 811Q282 837 304 859T351 890L485 771L458
740L269 811Z" />
<glyph unicode="&#xc1;" glyph-name="Aacute" horiz-adv-x="643" d="M-78 0L-68 41L24 63L404 700H459L506 62L585 41L575 0H325L335 41L411 59L399 201H170L85 62L164 41L154 0H-78ZM204 255H394L376 546L204 255ZM372 771L506 890Q531 881 553 859T588 811L399
740L372 771Z" />
<glyph unicode="&#xc2;" glyph-name="Acircumflex" horiz-adv-x="643" d="M-78 0L-68 41L24 63L404 700H459L506 62L585 41L575 0H325L335 41L411 59L399 201H170L85 62L164 41L154 0H-78ZM204 255H394L376 546L204 255ZM264 772L419 894H503L599 772L554 748L448
823L310 748L264 772Z" />
<glyph unicode="&#xc3;" glyph-name="Atilde" horiz-adv-x="643" d="M-78 0L-68 41L24 63L404 700H459L506 62L585 41L575 0H325L335 41L411 59L399 201H170L85 62L164 41L154 0H-78ZM204 255H394L376 546L204 255ZM248 814Q279 850 312 870T374 890Q411 890 452
859T520 827Q559 827 603 864L623 838Q612 823 572 793T493 762Q452 762 414 793T347 825Q328 825 316 819T270 788L248 814Z" />
<glyph unicode="&#xc4;" glyph-name="Adieresis" horiz-adv-x="643" d="M-78 0L-68 41L24 63L404 700H459L506 62L585 41L575 0H325L335 41L411 59L399 201H170L85 62L164 41L154 0H-78ZM204 255H394L376 546L204 255ZM271 828Q271 855 290 874T337 893Q364 893
383 874T402 828Q402 800 383 781T337 762Q310 762 291 781T271 828ZM470 828Q470 855 489 874T536 893Q563 893 582 874T601 828Q601 800 582 781T536 762Q509 762 490 781T470 828Z" />
<glyph unicode="&#xc5;" glyph-name="Aring" horiz-adv-x="644" d="M-78 0L-68 41L24 63L402 697Q384 705 369 720Q337 752 337 798Q337 845 369 876T445 907Q488 907 521 876T554 798Q554 752 522 720Q495 694 460 690L506 62L585 41L575 0H325L335 41L411 59L399
201H170L85 62L164 41L154 0H-78ZM204 255H394L376 546L204 255ZM445 743Q468 743 484 759T501 798Q501 820 484 836T445 853Q423 853 407 837T390 798Q390 776 406 760T445 743Z" />
<glyph unicode="&#xc6;" glyph-name="AE" horiz-adv-x="1033" d="M-82 0L-72 41L46 69L681 700H1059L1008 495H970L964 638H762L697 381L900 401L880 317L686 335L618 62H819L928 216H966L885 0H420L430 41L522 63L556 201H260L115 58L180 41L170 0H-82ZM315 255H570L653
587L315 255Z" />
<glyph unicode="&#xc7;" glyph-name="Ccedilla" horiz-adv-x="615" d="M143 -229L155 -190Q168 -194 192 -194Q229 -194 258 -178T288 -125Q288 -76 229 -76L265 -6Q216 -3 178 13Q131 33 105 68T67 145T55 239Q55 355 104 462T246 638T454 708Q510 708 558 698T628
678L648 668L602 483H563L557 640Q515 650 483 650Q390 650 314 594T197 445T155 245Q155 164 189 110T304 55Q348 55 392 64L506 226H545L474 42Q390 -1 309 -6L293 -41Q367 -45 367 -110Q367 -166 320 -202T212 -239Q176 -239 143 -229Z" />
<glyph unicode="&#xc8;" glyph-name="Egrave" horiz-adv-x="593" d="M-20 0L-10 41L82 63L225 637L144 659L154 700H619L568 495H530L524 638H322L257 381L460 401L440 317L246 335L178 62H379L488 216H526L445 0H-20ZM261 811Q274 837 296 859T343 890L477 771L450
740L261 811Z" />
<glyph unicode="&#xc9;" glyph-name="Eacute" horiz-adv-x="593" d="M-20 0L-10 41L82 63L225 637L144 659L154 700H619L568 495H530L524 638H322L257 381L460 401L440 317L246 335L178 62H379L488 216H526L445 0H-20ZM360 771L494 890Q519 881 541 859T576 811L387
740L360 771Z" />
<glyph unicode="&#xca;" glyph-name="Ecircumflex" horiz-adv-x="593" d="M-20 0L-10 41L82 63L225 637L144 659L154 700H619L568 495H530L524 638H322L257 381L460 401L440 317L246 335L178 62H379L488 216H526L445 0H-20ZM261 781L416 903H500L596 781L551 757L445
832L307 757L261 781Z" />
<glyph unicode="&#xcb;" glyph-name="Edieresis" horiz-adv-x="593" d="M-20 0L-10 41L82 63L225 637L144 659L154 700H619L568 495H530L524 638H322L257 381L460 401L440 317L246 335L178 62H379L488 216H526L445 0H-20ZM292 828Q292 855 311 874T358 893Q385
893 404 874T423 828Q423 800 404 781T358 762Q331 762 312 781T292 828ZM491 828Q491 855 510 874T557 893Q584 893 603 874T622 828Q622 800 603 781T557 762Q530 762 511 781T491 828Z" />
<glyph unicode="&#xcc;" glyph-name="Igrave" horiz-adv-x="375" d="M-20 0L-10 41L82 63L225 637L144 659L154 700H424L414 659L321 637L178 63L260 41L250 0H-20ZM167 811Q180 837 202 859T249 890L383 771L356 740L167 811Z" />
<glyph unicode="&#xcd;" glyph-name="Iacute" horiz-adv-x="375" d="M-20 0L-10 41L82 63L225 637L144 659L154 700H424L414 659L321 637L178 63L260 41L250 0H-20ZM226 771L360 890Q385 881 407 859T442 811L253 740L226 771Z" />
<glyph unicode="&#xce;" glyph-name="Icircumflex" horiz-adv-x="375" d="M-20 0L-10 41L82 63L225 637L144 659L154 700H424L414 659L321 637L178 63L260 41L250 0H-20ZM132 781L287 903H371L467 781L422 757L316 832L178 757L132 781Z" />
<glyph unicode="&#xcf;" glyph-name="Idieresis" horiz-adv-x="375" d="M-20 0L-10 41L82 63L225 637L144 659L154 700H424L414 659L321 637L178 63L260 41L250 0H-20ZM159 828Q159 855 178 874T225 893Q252 893 271 874T290 828Q290 800 271 781T225 762Q198
762 179 781T159 828ZM358 828Q358 855 377 874T424 893Q451 893 470 874T489 828Q489 800 470 781T424 762Q397 762 378 781T358 828Z" />
<glyph unicode="&#xd0;" glyph-name="Eth" horiz-adv-x="698" d="M51 328V375H160L226 637L145 659L155 700H371Q518 700 593 638T669 453Q669 343 631 255T527 112T377 29T197 0H-19L-9 41L83 63L149 328H51ZM179 62H212Q369 62 469 177T570 457Q570 638 356
638H323L257 375H419V328H245L179 62Z" />
<glyph unicode="&#xd1;" glyph-name="Ntilde" horiz-adv-x="741" d="M-20 0L-10 41L82 63L225 637L144 659L154 700H290L525 200L634 637L554 659L564 700H801L791 659L698 637L540 0H514L263 532L146 63L227 41L217 0H-20ZM310 809Q341 845 374 865T436 885Q473
885 514 854T582 822Q621 822 665 859L685 833Q674 818 634 788T555 757Q514 757 476 788T409 820Q390 820 378 814T332 783L310 809Z" />
<glyph unicode="&#xd2;" glyph-name="Ograve" horiz-adv-x="719" d="M54 233Q54 354 103 462T245 639T455 708Q572 708 632 641T693 467Q693 378 664 293T585 141T458 34T293 -7Q176 -7 115 60T54 233ZM156 224Q156 142 192 94T301 46Q369 46 425 88T517 195T571
335T591 478Q591 559 554 606T445 653Q379 653 322 611T230 504T176 366T156 224ZM324 811Q337 837 359 859T406 890L540 771L513 740L324 811Z" />
<glyph unicode="&#xd3;" glyph-name="Oacute" horiz-adv-x="719" d="M54 233Q54 354 103 462T245 639T455 708Q572 708 632 641T693 467Q693 378 664 293T585 141T458 34T293 -7Q176 -7 115 60T54 233ZM156 224Q156 142 192 94T301 46Q369 46 425 88T517 195T571
335T591 478Q591 559 554 606T445 653Q379 653 322 611T230 504T176 366T156 224ZM387 771L521 890Q546 881 568 859T603 811L414 740L387 771Z" />
<glyph unicode="&#xd4;" glyph-name="Ocircumflex" horiz-adv-x="719" d="M54 233Q54 354 103 462T245 639T455 708Q572 708 632 641T693 467Q693 378 664 293T585 141T458 34T293 -7Q176 -7 115 60T54 233ZM156 224Q156 142 192 94T301 46Q369 46 425 88T517
195T571 335T591 478Q591 559 554 606T445 653Q379 653 322 611T230 504T176 366T156 224ZM313 777L468 899H552L648 777L603 753L497 828L359 753L313 777Z" />
<glyph unicode="&#xd5;" glyph-name="Otilde" horiz-adv-x="719" d="M54 233Q54 354 103 462T245 639T455 708Q572 708 632 641T693 467Q693 378 664 293T585 141T458 34T293 -7Q176 -7 115 60T54 233ZM156 224Q156 142 192 94T301 46Q369 46 425 88T517 195T571
335T591 478Q591 559 554 606T445 653Q379 653 322 611T230 504T176 366T156 224ZM298 819Q329 855 362 875T424 895Q461 895 502 864T570 832Q609 832 653 869L673 843Q662 828 622 798T543 767Q502 767 464 798T397 830Q378 830 366 824T320 793L298 819Z" />
<glyph unicode="&#xd6;" glyph-name="Odieresis" horiz-adv-x="719" d="M54 233Q54 354 103 462T245 639T455 708Q572 708 632 641T693 467Q693 378 664 293T585 141T458 34T293 -7Q176 -7 115 60T54 233ZM156 224Q156 142 192 94T301 46Q369 46 425 88T517 195T571
335T591 478Q591 559 554 606T445 653Q379 653 322 611T230 504T176 366T156 224ZM311 828Q311 855 330 874T377 893Q404 893 423 874T442 828Q442 800 423 781T377 762Q350 762 331 781T311 828ZM510 828Q510 855 529 874T576 893Q603 893 622 874T641 828Q641
800 622 781T576 762Q549 762 530 781T510 828Z" />
<glyph unicode="&#xd7;" glyph-name="multiply" horiz-adv-x="598" d="M99 190L267 357L99 525L147 572L314 405L483 573L530 525L362 357L530 189L483 142L315 310L147 143L99 190Z" />
<glyph unicode="&#xd8;" glyph-name="Oslash" horiz-adv-x="719" d="M150 -40L178 14Q141 30 114 60Q54 127 54 233Q54 353 103 461T245 638T455 708Q500 708 537 698L559 739H623L590 675Q614 661 632 640Q693 573 693 467Q693 378 664 293T585 141T458 34T293
-7Q262 -7 234 -2L215 -40H150ZM156 223Q156 141 192 94Q200 83 210 75L508 641Q481 653 445 653Q379 653 322 611T230 504T176 365T156 223ZM301 47Q368 47 425 89T517 196T571 334T591 477Q591 559 554 606H553L262 51Q280 47 301 47Z" />
<glyph unicode="&#xd9;" glyph-name="Ugrave" horiz-adv-x="737" d="M97 169Q97 214 111 269L203 637L122 659L132 700H402L392 659L299 637L207 269Q193 211 193 184Q193 123 232 94T338 64Q414 64 469 118T548 269L640 637L560 659L570 700H807L797 659L704
637L612 269Q578 131 499 62T301 -7Q210 -7 154 37T97 169ZM338 811Q351 837 373 859T420 890L554 771L527 740L338 811Z" />
<glyph unicode="&#xda;" glyph-name="Uacute" horiz-adv-x="737" d="M97 169Q97 214 111 269L203 637L122 659L132 700H402L392 659L299 637L207 269Q193 211 193 184Q193 123 232 94T338 64Q414 64 469 118T548 269L640 637L560 659L570 700H807L797 659L704
637L612 269Q578 131 499 62T301 -7Q210 -7 154 37T97 169ZM416 771L550 890Q575 881 597 859T632 811L443 740L416 771Z" />
<glyph unicode="&#xdb;" glyph-name="Ucircumflex" horiz-adv-x="737" d="M97 169Q97 214 111 269L203 637L122 659L132 700H402L392 659L299 637L207 269Q193 211 193 184Q193 123 232 94T338 64Q414 64 469 118T548 269L640 637L560 659L570 700H807L797 659L704
637L612 269Q578 131 499 62T301 -7Q210 -7 154 37T97 169ZM341 781L496 903H580L676 781L631 757L525 832L387 757L341 781Z" />
<glyph unicode="&#xdc;" glyph-name="Udieresis" horiz-adv-x="737" d="M97 169Q97 214 111 269L203 637L122 659L132 700H402L392 659L299 637L207 269Q193 211 193 184Q193 123 232 94T338 64Q414 64 469 118T548 269L640 637L560 659L570 700H807L797 659L704
637L612 269Q578 131 499 62T301 -7Q210 -7 154 37T97 169ZM344 828Q344 855 363 874T410 893Q437 893 456 874T475 828Q475 800 456 781T410 762Q383 762 364 781T344 828ZM543 828Q543 855 562 874T609 893Q636 893 655 874T674 828Q674 800 655 781T609 762Q582
762 563 781T543 828Z" />
<glyph unicode="&#xdd;" glyph-name="Yacute" horiz-adv-x="615" d="M77 659L87 700H324L314 659L250 646L343 385L547 639L473 659L483 700H714L704 659L628 637L369 318L306 63L394 41L384 0H115L125 41L209 63L271 313L151 639L77 659ZM355 771L489 890Q514
881 536 859T571 811L382 740L355 771Z" />
<glyph unicode="&#xde;" glyph-name="Thorn" horiz-adv-x="578" d="M-20 0L-10 41L82 63L225 637L144 659L154 700H424L414 659L321 637L299 548H351Q446 548 505 510T565 390Q565 276 485 214T265 152H200L178 63L260 41L250 0H-20ZM215 212H271Q364 212 414
257T464 383Q464 435 431 462T337 490H284L215 212Z" />
<glyph unicode="&#xdf;" glyph-name="germandbls" horiz-adv-x="617" d="M9 -7L160 573Q221 807 438 807Q519 807 562 770T605 676Q605 618 581 583T522 532T453 506T394 471T369 409Q369 386 383 365T411 330T458 293Q511 253 533 221T556 141Q556 73 505 33T364
-7Q281 -7 233 18T185 80Q185 108 201 126T252 164L285 106Q290 98 299 84T316 63T333 49T353 38T377 35Q413 35 441 54T470 111Q470 143 451 169T405 214L350 254Q323 274 304 306T285 380Q285 422 302 451T344 494L454 552Q480 566 497 594T514 663Q514 707 491
735T422 763Q402 763 381 755T334 725T286 658T245 548L103 0L9 -7Z" />
<glyph unicode="&#xe0;" glyph-name="agrave" horiz-adv-x="567" d="M24 137Q24 291 116 399T340 507Q433 507 503 461L402 69H502V37Q428 14 390 4T338 -7Q303 -7 303 23Q303 38 310 64L319 100Q235 -7 135 -7Q87 -7 56 28T24 137ZM122 159Q122 62 184 62Q218
62 263 100T343 191L412 456Q391 463 362 463Q292 463 236 416T151 300T122 159ZM185 715Q220 757 279 767L380 591L345 564L185 715Z" />
<glyph unicode="&#xe1;" glyph-name="aacute" horiz-adv-x="567" d="M24 137Q24 291 116 399T340 507Q433 507 503 461L402 69H502V37Q428 14 390 4T338 -7Q303 -7 303 23Q303 38 310 64L319 100Q235 -7 135 -7Q87 -7 56 28T24 137ZM122 159Q122 62 184 62Q218
62 263 100T343 191L412 456Q391 463 362 463Q292 463 236 416T151 300T122 159ZM331 591L432 767Q493 756 526 715L367 564L331 591Z" />
<glyph unicode="&#xe2;" glyph-name="acircumflex" horiz-adv-x="567" d="M24 137Q24 291 116 399T340 507Q433 507 503 461L402 69H502V37Q428 14 390 4T338 -7Q303 -7 303 23Q303 38 310 64L319 100Q235 -7 135 -7Q87 -7 56 28T24 137ZM122 159Q122 62 184 62Q218
62 263 100T343 191L412 456Q391 463 362 463Q292 463 236 416T151 300T122 159ZM225 610L380 771H455L526 605L487 581L405 704L270 586L225 610Z" />
<glyph unicode="&#xe3;" glyph-name="atilde" horiz-adv-x="567" d="M24 137Q24 291 116 399T340 507Q433 507 503 461L402 69H502V37Q428 14 390 4T338 -7Q303 -7 303 23Q303 38 310 64L319 100Q235 -7 135 -7Q87 -7 56 28T24 137ZM122 159Q122 62 184 62Q218
62 263 100T343 191L412 456Q391 463 362 463Q292 463 236 416T151 300T122 159ZM200 677Q220 702 255 727T325 753Q362 753 396 722T457 690Q495 690 544 730L560 701Q547 684 507 655T430 625Q391 625 357 656T298 688Q278 688 264 681T216 649L200 677Z" />
<glyph unicode="&#xe4;" glyph-name="adieresis" horiz-adv-x="567" d="M24 137Q24 291 116 399T340 507Q433 507 503 461L402 69H502V37Q428 14 390 4T338 -7Q303 -7 303 23Q303 38 310 64L319 100Q235 -7 135 -7Q87 -7 56 28T24 137ZM122 159Q122 62 184 62Q218
62 263 100T343 191L412 456Q391 463 362 463Q292 463 236 416T151 300T122 159ZM219 693Q219 720 238 739T285 758Q312 758 331 739T350 693Q350 665 331 646T285 627Q258 627 239 646T219 693ZM419 693Q419 720 438 739T485 758Q512 758 531 739T550 693Q550
665 531 646T485 627Q458 627 439 646T419 693Z" />
<glyph unicode="&#xe5;" glyph-name="aring" horiz-adv-x="567" d="M24 137Q24 291 116 399T340 507Q433 507 503 461L402 69H502V37Q428 14 390 4T338 -7Q303 -7 303 23Q303 38 310 64L319 100Q235 -7 135 -7Q87 -7 56 28T24 137ZM122 159Q122 62 184 62Q218
62 263 100T343 191L412 456Q391 463 362 463Q292 463 236 416T151 300T122 159ZM354 591Q310 591 278 622T246 700Q246 747 278 778T354 809Q397 809 430 778T463 700Q463 654 431 623T354 591ZM354 645Q377 645 393 661T410 700Q410 722 393 738T354 755Q332
755 316 739T299 700Q299 678 315 662T354 645Z" />
<glyph unicode="&#xe6;" glyph-name="ae" horiz-adv-x="749" d="M8 99Q8 186 93 230Q177 273 317 274Q323 293 331 312Q343 354 343 386Q343 425 321 447T258 470Q208 470 187 438T165 335Q128 335 101 352T74 405Q75 452 124 479T241 507Q368 507 415 430Q435
454 488 480T607 507Q663 507 697 482T732 407Q732 349 685 307T565 246T404 223Q401 205 401 187Q401 126 429 84T513 42Q565 42 636 69L645 38Q555 -7 461 -7Q357 -7 320 64Q283 35 237 14T130 -7Q73 -7 41 23T8 99ZM412 269Q524 283 581 322T639 413Q639 439
625 454T588 470Q526 470 477 415T412 269ZM300 162Q300 196 306 229Q223 228 167 198Q111 168 111 115Q111 89 127 71T179 53Q246 53 306 103Q300 129 300 162Z" />
<glyph unicode="&#xe7;" glyph-name="ccedilla" horiz-adv-x="462" d="M85 -229L97 -190Q110 -194 134 -194Q171 -194 200 -178T230 -125Q230 -76 171 -76L206 -7H193Q115 -7 71 39T27 170Q27 230 46 289T101 397T193 476T316 507Q378 507 416 484T455 426Q455
396 431 376T366 354Q362 369 357 393T349 426T341 447T329 463T311 467Q241 467 186 384T130 178Q130 116 158 79T248 42Q297 42 365 68L375 37Q315 7 253 -2L235 -41Q309 -45 309 -110Q309 -166 262 -202T154 -239Q118 -239 85 -229Z" />
<glyph unicode="&#xe8;" glyph-name="egrave" horiz-adv-x="473" d="M24 162Q24 210 37 258T76 351T139 430T225 486T332 507Q388 507 422 482T457 407Q457 370 436 340T383 288T304 249T217 221T125 199Q124 190 124 172Q124 42 237 42Q289 42 360 69L370 38Q280
-7 186 -7Q24 -7 24 162ZM130 238Q359 321 359 417Q359 470 312 470Q252 470 200 401T130 238ZM161 715Q196 757 255 767L356 591L321 564L161 715Z" />
<glyph unicode="&#xe9;" glyph-name="eacute" horiz-adv-x="473" d="M24 162Q24 210 37 258T76 351T139 430T225 486T332 507Q388 507 422 482T457 407Q457 370 436 340T383 288T304 249T217 221T125 199Q124 190 124 172Q124 42 237 42Q289 42 360 69L370 38Q280
-7 186 -7Q24 -7 24 162ZM130 238Q359 321 359 417Q359 470 312 470Q252 470 200 401T130 238ZM288 591L389 767Q450 756 483 715L324 564L288 591Z" />
<glyph unicode="&#xea;" glyph-name="ecircumflex" horiz-adv-x="473" d="M24 162Q24 210 37 258T76 351T139 430T225 486T332 507Q388 507 422 482T457 407Q457 370 436 340T383 288T304 249T217 221T125 199Q124 190 124 172Q124 42 237 42Q289 42 360 69L370
38Q280 -7 186 -7Q24 -7 24 162ZM130 238Q359 321 359 417Q359 470 312 470Q252 470 200 401T130 238ZM172 601L327 762H402L473 596L434 572L352 695L217 577L172 601Z" />
<glyph unicode="&#xeb;" glyph-name="edieresis" horiz-adv-x="473" d="M24 162Q24 210 37 258T76 351T139 430T225 486T332 507Q388 507 422 482T457 407Q457 370 436 340T383 288T304 249T217 221T125 199Q124 190 124 172Q124 42 237 42Q289 42 360 69L370
38Q280 -7 186 -7Q24 -7 24 162ZM130 238Q359 321 359 417Q359 470 312 470Q252 470 200 401T130 238ZM162 693Q162 720 181 739T228 758Q255 758 274 739T293 693Q293 665 274 646T228 627Q201 627 182 646T162 693ZM362 693Q362 720 381 739T428 758Q455 758
474 739T493 693Q493 665 474 646T428 627Q401 627 382 646T362 693Z" />
<glyph unicode="&#xec;" glyph-name="igrave" horiz-adv-x="313" d="M45 22Q45 33 52 63L146 432H45V463Q181 507 210 507Q246 507 246 478Q246 465 238 437L146 68H246V37Q111 -7 81 -7Q45 -7 45 22ZM41 715Q76 757 135 767L236 591L201 564L41 715Z" />
<glyph unicode="&#xed;" glyph-name="iacute" horiz-adv-x="313" d="M45 22Q45 33 52 63L146 432H45V463Q181 507 210 507Q246 507 246 478Q246 465 238 437L146 68H246V37Q111 -7 81 -7Q45 -7 45 22ZM143 591L244 767Q305 756 338 715L179 564L143 591Z" />
<glyph unicode="&#xee;" glyph-name="icircumflex" horiz-adv-x="313" d="M45 22Q45 33 52 63L146 432H45V463Q181 507 210 507Q246 507 246 478Q246 465 238 437L146 68H246V37Q111 -7 81 -7Q45 -7 45 22ZM23 610L178 771H253L324 605L285 581L203 704L68 586L23 610Z" />
<glyph unicode="&#xef;" glyph-name="idieresis" horiz-adv-x="313" d="M45 22Q45 33 52 63L146 432H45V463Q181 507 210 507Q246 507 246 478Q246 465 238 437L146 68H246V37Q111 -7 81 -7Q45 -7 45 22ZM51 693Q51 720 70 739T117 758Q144 758 163 739T182 693Q182
665 163 646T117 627Q90 627 71 646T51 693ZM251 693Q251 720 270 739T317 758Q344 758 363 739T382 693Q382 665 363 646T317 627Q290 627 271 646T251 693Z" />
<glyph unicode="&#xf0;" glyph-name="eth" horiz-adv-x="570" d="M26 186Q26 310 122 393T358 477Q384 477 411 474Q407 555 377 609L238 524V592L342 655Q285 709 185 709L198 758Q330 758 408 696L523 766V698L450 653Q512 572 512 437Q512 364 498 293T451
151T356 37T208 -7Q124 -7 75 45T26 186ZM127 163Q127 99 151 66T218 33Q303 33 354 149T410 428Q386 430 377 430Q314 430 264 404T185 338T142 252T127 163Z" />
<glyph unicode="&#xf1;" glyph-name="ntilde" horiz-adv-x="598" d="M37 -7L146 431H46V463Q121 486 159 496T211 507Q246 507 246 477Q246 469 244 459T239 436L223 374Q323 507 424 507Q517 507 517 409Q517 359 492 276L432 69H532V37Q457 14 419 4T367 -7Q332
-7 332 23Q332 40 339 64Q415 327 419 348T424 386Q424 433 387 433Q369 433 345 421T294 388T244 340T201 285L129 0L37 -7ZM184 677Q204 702 239 727T309 753Q346 753 380 722T441 690Q479 690 528 730L544 701Q531 684 491 655T414 625Q375 625 341 656T282
688Q262 688 248 681T200 649L184 677Z" />
<glyph unicode="&#xf2;" glyph-name="ograve" horiz-adv-x="538" d="M26 176Q26 258 61 332T166 457T324 507Q406 507 448 458T490 323Q490 242 455 167T349 43T191 -7Q109 -7 68 41T26 176ZM127 158Q127 33 203 33Q249 33 286 65T344 147T377 246T388 341Q388
467 312 467Q267 467 230 435T171 353T139 253T127 158ZM170 715Q205 757 264 767L365 591L330 564L170 715Z" />
<glyph unicode="&#xf3;" glyph-name="oacute" horiz-adv-x="538" d="M26 176Q26 258 61 332T166 457T324 507Q406 507 448 458T490 323Q490 242 455 167T349 43T191 -7Q109 -7 68 41T26 176ZM127 158Q127 33 203 33Q249 33 286 65T344 147T377 246T388 341Q388
467 312 467Q267 467 230 435T171 353T139 253T127 158ZM316 591L417 767Q478 756 511 715L352 564L316 591Z" />
<glyph unicode="&#xf4;" glyph-name="ocircumflex" horiz-adv-x="538" d="M26 176Q26 258 61 332T166 457T324 507Q406 507 448 458T490 323Q490 242 455 167T349 43T191 -7Q109 -7 68 41T26 176ZM127 158Q127 33 203 33Q249 33 286 65T344 147T377 246T388 341Q388
467 312 467Q267 467 230 435T171 353T139 253T127 158ZM200 601L355 762H430L501 596L462 572L380 695L245 577L200 601Z" />
<glyph unicode="&#xf5;" glyph-name="otilde" horiz-adv-x="538" d="M26 176Q26 258 61 332T166 457T324 507Q406 507 448 458T490 323Q490 242 455 167T349 43T191 -7Q109 -7 68 41T26 176ZM127 158Q127 33 203 33Q249 33 286 65T344 147T377 246T388 341Q388
467 312 467Q267 467 230 435T171 353T139 253T127 158ZM151 658Q171 683 206 708T276 734Q313 734 347 703T408 671Q446 671 495 711L511 682Q498 665 458 636T381 606Q342 606 308 637T249 669Q229 669 215 662T167 630L151 658Z" />
<glyph unicode="&#xf6;" glyph-name="odieresis" horiz-adv-x="538" d="M26 176Q26 258 61 332T166 457T324 507Q406 507 448 458T490 323Q490 242 455 167T349 43T191 -7Q109 -7 68 41T26 176ZM127 158Q127 33 203 33Q249 33 286 65T344 147T377 246T388 341Q388
467 312 467Q267 467 230 435T171 353T139 253T127 158ZM170 693Q170 720 189 739T236 758Q263 758 282 739T301 693Q301 665 282 646T236 627Q209 627 190 646T170 693ZM370 693Q370 720 389 739T436 758Q463 758 482 739T501 693Q501 665 482 646T436 627Q409
627 390 646T370 693Z" />
<glyph unicode="&#xf7;" glyph-name="divide" horiz-adv-x="558" d="M70 323V391H519V323H70ZM228 187Q228 215 248 234T295 254Q323 254 342 235T362 187Q362 160 343 140T295 119Q268 119 248 139T228 187ZM228 527Q228 555 248 575T295 595Q323 595 342 575T362
527Q362 500 343 480T295 459Q268 459 248 479T228 527Z" />
<glyph unicode="&#xf8;" glyph-name="oslash" horiz-adv-x="538" d="M49 -71L96 16Q80 26 67 41Q26 90 26 176Q26 258 61 332T166 457T324 507Q345 507 364 504L400 569H456L411 487Q432 476 448 458Q490 409 490 323Q490 242 455 167T349 43T191 -7Q165 -7 143
-2L106 -71H49ZM203 33Q249 33 286 65T344 147T377 246T388 341Q388 392 375 422L168 42Q183 33 203 33ZM127 158Q127 115 135 87L341 461Q328 467 312 467Q267 467 230 435T171 353T139 253T127 158Z" />
<glyph unicode="&#xf9;" glyph-name="ugrave" horiz-adv-x="597" d="M44 431V463Q119 486 157 496T209 507Q244 507 244 477Q244 469 237 443T220 380T198 301T176 222T159 155T152 114Q152 67 189 67Q208 67 232 79T282 113T332 160T375 215L447 500L539 507L430
69H530V37Q455 14 417 4T365 -7Q330 -7 330 23Q329 36 337 64L353 126Q253 -7 152 -7Q59 -7 59 91Q59 140 84 224L144 431H44ZM204 715Q239 757 298 767L399 591L364 564L204 715Z" />
<glyph unicode="&#xfa;" glyph-name="uacute" horiz-adv-x="597" d="M44 431V463Q119 486 157 496T209 507Q244 507 244 477Q244 469 237 443T220 380T198 301T176 222T159 155T152 114Q152 67 189 67Q208 67 232 79T282 113T332 160T375 215L447 500L539 507L430
69H530V37Q455 14 417 4T365 -7Q330 -7 330 23Q329 36 337 64L353 126Q253 -7 152 -7Q59 -7 59 91Q59 140 84 224L144 431H44ZM307 591L408 767Q469 756 502 715L343 564L307 591Z" />
<glyph unicode="&#xfb;" glyph-name="ucircumflex" horiz-adv-x="597" d="M44 431V463Q119 486 157 496T209 507Q244 507 244 477Q244 469 237 443T220 380T198 301T176 222T159 155T152 114Q152 67 189 67Q208 67 232 79T282 113T332 160T375 215L447 500L539
507L430 69H530V37Q455 14 417 4T365 -7Q330 -7 330 23Q329 36 337 64L353 126Q253 -7 152 -7Q59 -7 59 91Q59 140 84 224L144 431H44ZM205 610L360 771H435L506 605L467 581L385 704L250 586L205 610Z" />
<glyph unicode="&#xfc;" glyph-name="udieresis" horiz-adv-x="597" d="M44 431V463Q119 486 157 496T209 507Q244 507 244 477Q244 469 237 443T220 380T198 301T176 222T159 155T152 114Q152 67 189 67Q208 67 232 79T282 113T332 160T375 215L447 500L539 507L430
69H530V37Q455 14 417 4T365 -7Q330 -7 330 23Q329 36 337 64L353 126Q253 -7 152 -7Q59 -7 59 91Q59 140 84 224L144 431H44ZM190 693Q190 720 209 739T256 758Q283 758 302 739T321 693Q321 665 302 646T256 627Q229 627 210 646T190 693ZM390 693Q390 720 409
739T456 758Q483 758 502 739T521 693Q521 665 502 646T456 627Q429 627 410 646T390 693Z" />
<glyph unicode="&#xfd;" glyph-name="yacute" horiz-adv-x="543" d="M0 -245Q0 -222 15 -197T52 -152L118 -88Q163 -44 198 -7L120 431H20V463Q134 507 162 507Q195 507 200 477L273 77L281 86Q368 191 401 257T434 374Q434 391 425 406T403 431T362 464Q399 507
451 507Q479 507 500 490T521 437Q521 304 314 54L174 -108Q154 -129 138 -149T116 -182T111 -207Q111 -234 136 -261Q101 -300 58 -300Q35 -300 18 -287T0 -245ZM269 591L370 767Q431 756 464 715L305 564L269 591Z" />
<glyph unicode="&#xfe;" glyph-name="thorn" horiz-adv-x="546" d="M-64 -279L21 36L200 731H100V763Q174 786 212 796T264 807Q299 807 299 777Q299 762 292 736L204 398Q292 507 390 507Q438 507 469 472T501 363Q501 209 409 101T185 -7Q141 -7 102 3L32 -264L-64
-279ZM113 44Q134 37 163 37Q233 37 289 84T374 200T403 341Q403 438 341 438Q306 438 261 399T181 307L113 44Z" />
<glyph unicode="&#xff;" glyph-name="ydieresis" horiz-adv-x="543" d="M0 -245Q0 -222 15 -197T52 -152L118 -88Q163 -44 198 -7L120 431H20V463Q134 507 162 507Q195 507 200 477L273 77L281 86Q368 191 401 257T434 374Q434 391 425 406T403 431T362 464Q399
507 451 507Q479 507 500 490T521 437Q521 304 314 54L174 -108Q154 -129 138 -149T116 -182T111 -207Q111 -234 136 -261Q101 -300 58 -300Q35 -300 18 -287T0 -245ZM186 693Q186 720 205 739T252 758Q279 758 298 739T317 693Q317 665 298 646T252 627Q225 627
206 646T186 693ZM386 693Q386 720 405 739T452 758Q479 758 498 739T517 693Q517 665 498 646T452 627Q425 627 406 646T386 693Z" />
<glyph unicode="&#x2013;" glyph-name="endash" horiz-adv-x="656" d="M72 241V305H582V241H72Z" />
<glyph unicode="&#x2014;" glyph-name="emdash" horiz-adv-x="1156" d="M72 241V305H1082V241H72Z" />
<glyph unicode="&#x2018;" glyph-name="quoteleft" horiz-adv-x="232" d="M306 711Q235 651 189 571L237 524Q229 492 208 472T157 452Q130 452 113 467T96 509Q96 598 282 740L306 711Z" />
<glyph unicode="&#x2019;" glyph-name="quoteright" horiz-adv-x="236" d="M79 454Q150 514 196 594L148 641Q156 673 177 693T228 713Q255 713 272 698T289 656Q289 567 103 425L79 454Z" />
<glyph unicode="&#x201a;" glyph-name="quotesinglbase" horiz-adv-x="231" d="M-82 -142Q-11 -82 35 -2L-13 45Q-5 77 16 97T67 117Q94 117 111 102T128 60Q128 -29 -58 -171L-82 -142Z" />
<glyph unicode="&#x201c;" glyph-name="quotedblleft" horiz-adv-x="401" d="M307 713Q236 653 190 573L238 526Q230 494 209 474T158 454Q131 454 114 469T97 511Q97 600 283 742L307 713ZM476 713Q405 653 359 573L407 526Q399 494 378 474T327 454Q300 454
283 469T266 511Q266 600 452 742L476 713Z" />
<glyph unicode="&#x201d;" glyph-name="quotedblright" horiz-adv-x="405" d="M79 454Q150 514 196 594L148 641Q156 673 177 693T228 713Q255 713 272 698T289 656Q289 567 103 425L79 454ZM248 454Q319 514 365 594L317 641Q325 673 346 693T397 713Q424 713
441 698T458 656Q458 567 272 425L248 454Z" />
<glyph unicode="&#x201e;" glyph-name="quotedblbase" horiz-adv-x="411" d="M-82 -142Q-11 -82 35 -2L-13 45Q-5 77 16 97T67 117Q94 117 111 102T128 60Q128 -29 -58 -171L-82 -142ZM98 -142Q169 -82 215 -2L167 45Q175 77 196 97T247 117Q274 117 291 102T308
60Q308 -29 122 -171L98 -142Z" />
<glyph unicode="&#x2022;" glyph-name="bullet" horiz-adv-x="453" d="M94 359Q94 420 139 463T246 507Q307 507 350 464T394 359Q394 295 351 251T246 207Q184 207 139 251T94 359Z" />
<glyph unicode="&#x2039;" glyph-name="guilsinglleft" horiz-adv-x="299" d="M40 254L48 286L236 460H283L140 270L188 80H141L40 254Z" />
<glyph unicode="&#x203a;" glyph-name="guilsinglright" horiz-adv-x="300" d="M5 80L148 270L100 460H147L248 286L240 254L52 80H5Z" />
</font>
</defs>
</svg>
